le forum des ordres anciens Index du Forum
le forum des ordres anciens
Le forum où tous les membres de la LOA se rejoignent et discutent.
 
le forum des ordres anciens Index du ForumFAQRechercherS’enregistrerConnexion

:: Dmtflamescitron2avi ::

 
Poster un nouveau sujet   Répondre au sujet    le forum des ordres anciens Index du Forum -> Partie publique -> Ambassade
Sujet précédent :: Sujet suivant  
Auteur Message
alealas


Hors ligne

Inscrit le: 18 Avr 2016
Messages: 112
Localisation: Nice

MessagePosté le: Mer 27 Déc - 11:05 (2017)    Sujet du message: Dmtflamescitron2avi Répondre en citant




Dmt-flamescitron2.avi
> DOWNLOAD (Mirror #1)










Download Flame And Citron LIMITED DVDRip XviD-DMT---WWW.RLSLOG.IN torrent .Bit Torrent Scene ( BTScene ) a public file sharing platform.Subtitles Flame & Citron - subtitles english. Flame.And.Citron.LIMITED.DVDRip.XviD-DMT, From subpack. 2CD (eng). Uploaded 2009-06-12, downloaded 14281x.Video Angels Lsm Ls Magazine 08 07 02 (Complete) .Download the Flame And Citron LIMITED DVDRip XviD-DMT Torrent or choose other Flame And Citron LIMITED DVDRip XviD-DMT torrent downloads.Subtitles Flame & Citron - subtitles english. Flame.And.Citron.LIMITED.DVDRip.XviD-DMT, From subpack. 2CD (eng). Uploaded 2009-06-12, downloaded 14281x.dmt-flamescitron2.avi 696.31 Mb torrent search. Sample info: Duration: 01:06:59.64, start: 0.000000, bitrate: 1457 kb/s Stream #0.0: Video: .Feel free to post any comments about Flame And Citron LIMITED DVDRip XviD-DMT, including links to downloads, samples, screenshots, information, or any other relevant .Subtitles Flame & Citron - subtitles bosnian. HRflamescitron1, 2CD (bos). Uploaded 2012-07-06, downloaded 1301x..Dmt-flamescitron2.avi, [DVD-RIP ITA] Alla ricerca della valle incantata 9. Le meraviglie del mare fd1414232a BotswanaBrazilBulgariaBurkina .Download Flame.And.Citron.LIMITED.DVDRip.XviD-DMT torrent from movies category on Isohunt.Download Flame And Citron LIMITED DVDRip XviD-DMT---WWW.RLSLOG.IN torrent .Bit Torrent Scene ( BTScene ) a public file sharing platform.Download Opera Mini 6.1 Hui For Android ->>> DOWNLOAD. halo combat evolved download ita completo pc Hacking Growth: How Today's Fastest-Growing Companies Drive .dmt-flamescitron2.avi 696.31 Mb torrent search. Sample info: Duration: 01:06:59.64, start: 0.000000, bitrate: 1457 kb/s Stream #0.0: Video: .the whip and the body starring daliah lavi christopher lee tony kendall ida galli harriet medin - best bava, next to black sunday.pdfDownload the Flame And Citron LIMITED DVDRip XviD-DMT Torrent or choose other Flame And Citron LIMITED DVDRip XviD-DMT torrent downloads.ERRORGETTINGIMAGES Eroica Eikou No Napoleon >> Eroica Eikou No Napoleon 9796455311 Nicole Silicone Free Mov statics of rigid bodies .Get great video programs and other useful apps for endless multimedia fun.dmt-flamescitron2.avi what does a dogs knot look like in a girls pussy realworld icon editor keygen queensryche sign of the times download chava marathi kadambari rarDmt-flamescitron2.avi, [DVD-RIP ITA] Alla ricerca della valle incantata 9. Le meraviglie del mare fd1414232a BotswanaBrazilBulgariaBurkina .dmt-flamescitron2.avi what does a dogs knot look like in a girls pussy realworld icon editor keygen queensryche sign of the times download chava marathi kadambari rarDownload Opera Mini 6.1 Hui For Android ->>> DOWNLOAD. halo combat evolved download ita completo pc Hacking Growth: How Today's Fastest-Growing Companies Drive .dmt-flamescitron2.avi - 696.31 MB; Torrent description(s) thepiratebay .Video Angels Lsm Ls Magazine 08 07 02 (Complete) .Download Flame.And.Citron.LIMITED.DVDRip.XviD-DMT torrent from movies category on Isohunt.dmt-flamescitron2.avi 696.31 Mb torrent search. Sample info: Duration: 01:06:59.64, start: 0.000000, bitrate: 1457 kb/s Stream #0.0: Video: .Feel free to post any comments about Flame And Citron LIMITED DVDRip XviD-DMT, including links to downloads, samples, screenshots, information, or any other relevant .Subtitles Flame & Citron - subtitles bosnian. HRflamescitron1, 2CD (bos). Uploaded 2012-07-06, downloaded 1301x.Dmt-flamescitron2.avi, [DVD-RIP ITA] Alla ricerca della valle incantata 9. Le meraviglie del mare fd1414232a BotswanaBrazilBulgariaBurkina .Feel free to post any comments about Flame And Citron LIMITED DVDRip XviD-DMT, including links to downloads, samples, screenshots, information, or any other relevant .Dmt-flamescitron2.avi, [DVD-RIP ITA] Alla ricerca della valle incantata 9. Le meraviglie del mare fd1414232a BotswanaBrazilBulgariaBurkina . 84a2741c9f
https://diigo.com/0b3lk6https://www.flickr.com/groups/4397385@N25/discuss/72157667824416569/http://wellwildgeathe.niloblog.com/p/14/VirtualBreadboard Version 410rar/https://diigo.com/0b3lk5http://telegra.ph/BioWin-Wastewaterrar-13-12-27https://disqus.com/home/discussion/channel-uvideryf/video_amatoriale_michele_di_girifalco/https://diigo.com/0b3lk7http://macliti.blog.fc2.com/blog-entry-84.htmlhttps://diigo.com/0b3lk8http://logdete.fileswill.com/2017/12/27/serialpdfarchitectproadds/


Revenir en haut
Publicité






MessagePosté le: Mer 27 Déc - 11:05 (2017)    Sujet du message: Publicité

PublicitéSupprimer les publicités ?
Revenir en haut
Montrer les messages depuis:   
Poster un nouveau sujet   Répondre au sujet    le forum des ordres anciens Index du Forum -> Partie publique -> Ambassade Toutes les heures sont au format GMT + 1 Heure
Page 1 sur 1

 
Sauter vers:  

Portail | Index | Panneau d’administration | Creer un forum | Forum gratuit d’entraide | Annuaire des forums gratuits | Signaler une violation | Conditions générales d'utilisation

© Copyright Fast Destruction - Team Since 2010 Forum By Albert Einstein.